北京交通大学论坛-知行信息交流平台

 找回密码
 注册

微信登录

微信扫一扫,快速登录

快速进入版块与发帖 搜索
查看: 714|回复: 9

生活大爆炸 第十二季The.Big.Bang.Theory.S12.WEB.720P

[复制链接]
发表于 2021-10-10 09:35 | 显示全部楼层 |阅读模式
S12全24集+剧终幕后特辑吉姆·帕森斯/约翰尼·盖尔克奇



◎译    名  生活大爆炸 第十二季
◎片    名  The Big Bang Theory Season 12
◎年    代  2018
◎产    地  美国
◎类    别  喜剧 / 爱情
◎语    言  英语
◎上映日期  2018-09-24(美国)
◎IMDb评分  7.2/10 from 917 users
◎IMDb链接  http://www.imdb.com/title/tt6673778/
◎豆瓣评分  9.4/10 from 15121 users
◎豆瓣链接  https://movie.douban.com/subject/27001001/
◎集    数  24
◎片    长  22分钟
◎导    演  马克·森卓斯基 Mark Cendrowski
◎编    剧  查克·罗瑞 Chuck Lorre / 比尔·布拉迪 Bill Prady
◎主    演  吉姆·帕森斯 Jim Parsons
            约翰尼·盖尔克奇 Johnny Galecki
            凯莉·库柯 Kaley Cuoco
            西蒙·赫尔伯格 Simon Helberg
            昆瑙·内亚 Kunal Nayyar
            梅丽莎·劳奇 Melissa Rauch
            马伊姆·拜力克 Mayim Bialik
            凯文·苏斯曼 Kevin Sussman

◎标    签  生活大爆炸 | 美剧 | 谢耳朵 | 喜剧 | 情景喜剧 | 美国 | 2018 | 电视剧

◎简    介

    CBS和华纳电视部门正式宣布《生活大爆炸》将于第12季播出最终大结局,与所有观众告别。最后一季将于9月24日于CBS开播,并于明年5月全剧终。

◎获奖情况

    第23届美国艺术指导工会奖(2019)
    电视奖 最佳多镜头剧集艺术指导(提名)

    第9届美国评论家选择电视奖(2019)
    喜剧类最佳男主角(提名) 吉姆·帕森斯

    第5届豆瓣电影年度榜单(2018)
    评分最高的英美剧(非新剧)(提名)


General
Complete name                  : 生活大爆炸.The.Big.Bang.Theory.S12E01.中英字幕.WEB.720P-人人影视.mp4
Format                         : MPEG-4
Format profile                 : Base Media
Codec ID                       : isom (isom)
File size                      : 226 MiB
Duration                       : 20 min 37 s
Overall bit rate mode          : Variable
Overall bit rate               : 1 529 kb/s
Encoded date                   : UTC 2019-05-28 14:53:38
Tagged date                    : UTC 2019-05-28 14:53:38


Video
ID                             : 1
Format                         : AVC
Format/Info                    : Advanced Video Codec
Format profile                 : Main@L4
Format settings                : CABAC / 8 Ref Frames
Format settings, CABAC         : Yes
Format settings, ReFrames      : 8 frames
Codec ID                       : avc1
Codec ID/Info                  : Advanced Video Coding
Duration                       : 20 min 37 s
Bit rate                       : 1 400 kb/s
Maximum bit rate               : 18.8 Mb/s
Width                          : 1 280 pixels
Height                         : 720 pixels
Display aspect ratio           : 16:9
Frame rate mode                : Constant
Frame rate                     : 24.000 FPS
Color space                    : YUV
Chroma subsampling             : 4:2:0
Bit depth                      : 8 bits
Scan type                      : Progressive
Bits/(Pixel*Frame)             : 0.063
Stream size                    : 206 MiB (91%)
Writing library                : x264 core 98 r1649 c54c47d
Encoding settings              : cabac=1 / ref=8 / deblock=1:0:0 / analyse=0x1:0x131 / me=umh / subme=9 / psy=1 / psy_rd=1.00:0.00 / mixed_ref=1 / me_range=32 / chroma_me=1 / trellis=1 / 8x8dct=0 / cqm=0 / deadzone=21,11 / fast_pskip=1 / chroma_qp_offset=-2 / threads=24 / sliced_threads=0 / nr=0 / decimate=1 / interlaced=0 / constrained_intra=0 / bframes=6 / b_pyramid=2 / b_adapt=2 / b_bias=0 / direct=3 / weightb=1 / weightp=2 / keyint=250 / keyint_min=25 / scenecut=40 / intra_refresh=0 / rc_lookahead=50 / rc=2pass / mbtree=1 / bitrate=1400 / ratetol=1.0 / qcomp=0.60 / qpmin=10 / qpmax=51 / qpstep=4 / cplxblur=20.0 / qblur=0.5 / ip_ratio=1.40 / aq=1:1.00
Encoded date                   : UTC 2019-05-28 14:45:21
Tagged date                    : UTC 2019-05-28 14:53:38


Audio
ID                             : 2
Format                         : AAC
Format/Info                    : Advanced Audio Codec
Format profile                 : LC
Codec ID                       : mp4a-40-2
Duration                       : 20 min 37 s
Bit rate mode                  : Variable
Bit rate                       : 128 kb/s
Maximum bit rate               : 135 kb/s
Channel(s)                     : 2 channels
Channel positions              : Front: L R
Sampling rate                  : 48.0 kHz
Frame rate                     : 46.875 FPS (1024 SPF)
Compression mode               : Lossy
Stream size                    : 18.9 MiB (8%)
Encoded date                   : UTC 2019-05-28 14:53:38
Tagged date                    : UTC 2019-05-28 14:53:38






本帖子中包含更多资源

您需要 登录 才可以下载或查看,没有帐号?注册 微信登录

x
 楼主| 发表于 2021-10-10 09:36 | 显示全部楼层
弄了好久终于弄齐人人字幕组的S12了。
S1~S11也是人人字幕组的,不过都是HDTV的
回复 支持 反对

使用道具 举报

 楼主| 发表于 2021-10-10 09:36 | 显示全部楼层
现在的问题是制作不了种子,UT做种就死机
回复 支持 反对

使用道具 举报

发表于 2021-10-11 14:30 | 显示全部楼层
外围能下载晨光么?
回复 支持 反对

使用道具 举报

 楼主| 发表于 2021-10-11 15:00 | 显示全部楼层
windy10 发表于 2021-10-11 14:30
外围能下载晨光么?

外围是啥
回复 支持 反对

使用道具 举报

发表于 2021-10-13 08:58 | 显示全部楼层

就是在校外能用晨光BT么?
回复 支持 反对

使用道具 举报

 楼主| 发表于 2021-10-13 10:36 | 显示全部楼层
windy10 发表于 2021-10-13 08:58
就是在校外能用晨光BT么?

有ipv6就行
回复 支持 反对

使用道具 举报

 楼主| 发表于 2021-10-16 20:53 | 显示全部楼层
@C751412K 终于可以做种了,把开始做种去勾选
回复 支持 反对

使用道具 举报

发表于 2021-10-16 21:04 | 显示全部楼层
Ironway 发表于 2021-10-16 20:53
@C751412K 终于可以做种了,把开始做种去勾选

我不是。。wx里和你说了吗
回复 支持 反对

使用道具 举报

 楼主| 发表于 2021-10-17 08:12 | 显示全部楼层
C751412K 发表于 2021-10-16 21:04
我不是。。wx里和你说了吗

对啊,就是按照你说的那个做,终于成功了太厉害了!
回复 支持 反对

使用道具 举报

手机版|北京交通大学论坛-知行信息交流平台 ( BJTUICP备13011901号 )  

GMT+8, 2021-10-23 12:19

Powered by Discuz! X3.4

Copyright © 2001-2020, Tencent Cloud.

快速回复 返回顶部 返回列表